当前位置:网站首页 > 影音资源 > 剧集 > 正文

[美剧] [海滩救护队/Baywatch 第一至九季] [全09季BT文件打包] [英语英字] [MKV] [720P] [片源]

作者:CC下载站日期:2022-11-20 03:44:20浏览:99分类:剧集

[美剧] [海滩救护队/Baywatch 第一至九季] [全09季BT文件打包] [英语英字] [MKV] [720P] [片源]

◎译  名 海滩救护队 / 护滩使者 / 海岸抢险队 / 海岸救生队 / 海滩护卫队 / 海魂 第一季 / 生死海滩

◎片  名 Baywatch

◎年  代 1989

◎产  地 美国

◎类  别 剧情 / 动作 / 冒险

◎语  言 英语

◎上映日期 1989-09-22(美国)

◎IMDb评分 5.2/10 from 22041 users

◎IMDb链接 https://www.imdb.com/title/tt0096542

◎豆瓣评分 7.9/10 from 1395 users

◎豆瓣链接 https://movie.douban.com/subject/1418478/

◎BT之家整理https://www.51btbtt.com/

◎片  长 43分钟

◎导  演 Gregory J. Bonann

◎编  剧 Lee Goldberg / Steven Barnes / Sherri Ziff / Susan Hamilton Brin / André Jacquemetton

◎主  演 帕米拉·安德森 Pamela Anderson

      大卫·哈塞尔霍夫 David Hasselhoff

      埃丽卡·埃伦尼克 Erika Eleniak


◎简  介


  美国的救生员剧《生死海滩》由大卫·哈塞尔霍夫和帕米拉·安德逊主演,是世界上收视率最高的电视连续剧。故事情节围绕海滩护卫队员营救故事展开,最大看点是海边的旖旎风景,以及无数的泳装帅哥美女。据估计在142个国家和地区内每周收看该剧的人数超过11亿。

《Baywatch》从1989年播映到2001年共播出了11个季。国内曾引进过前2季,相信不少人看过,讲述一大堆俊男美女的海岸救生员的故事。其中男主角David Hasselhoff 曾出演过《霹雳游侠》。Baywatch比较类似于《ER》,主题曲歌词翻译过来几乎就是美国版的《接过雷锋的抢》,每集不管大事小事都要救几个落水的,就单单一个沙滩的救生员就能拍出那么多集来,每集一个故事,几乎涉及到了生活的方方面面。


Video
ID : 1
Format : AVC
Format/Info : Advanced Video Codec
Format profile : [email protected]
Format settings : CABAC / 5 Ref Frames
Format settings, CABAC : Yes
Format settings, ReFrames : 5 frames
Codec ID : V_MPEG4/ISO/AVC
Duration : 42 min 56 s
Bit rate : 4 394 kb/s
Width : 1 280 pixels
Height : 720 pixels
Display aspect ratio : 16:9
Frame rate mode : Constant
Frame rate : 23.976 (24000/1001) FPS
Color space : YUV
Chroma subsampling : 4:2:0
Bit depth : 8 bits
Scan type : Progressive
Bits/(Pixel*Frame) : 0.199
Stream size : 1.32 GiB (95%)
Default : Yes
Forced : No
Color range : Limited
Color primaries : BT.709
Transfer characteristics : BT.709
Matrix coefficients : BT.709

Audio
ID : 2
Format : E-AC-3
Format/Info : Enhanced AC-3
Commercial name : Dolby Digital Plus
Codec ID : A_EAC3
Duration : 42 min 56 s
Bit rate mode : Constant
Bit rate : 224 kb/s
Channel(s) : 2 channels
Channel layout : L R
Sampling rate : 48.0 kHz
Frame rate : 31.250 FPS (1536 SPF)
Compression mode : Lossy
Stream size : 68.8 MiB (5%)
Language : English
Service kind : Complete Main
Default : Yes
Forced : No

Text
ID : 3
Format : UTF-8
Codec ID : S_TEXT/UTF8
Codec ID/Info : UTF-8 Plain Text
Duration : 41 min 43 s
Bit rate : 79 b/s
Count of elements : 880
Stream size : 24.2 KiB (0%)
Title : SDH
Language : English
Default : No
Forced : No


[美剧] [海滩救护队/Baywatch 第一至九季] [全09季BT文件打包] [英语英字] [MKV] [720P] [片源]


[美剧] [海滩救护队/Baywatch 第一至九季] [全09季BT文件打包] [英语英字] [MKV] [720P] [片源]

隐藏内容
评论可见
前往评论


暂无评论,来添加一个吧。

您需要 登录账户 后才能发表评论

取消回复欢迎 发表评论: